<?xml version="1.0" standalone="no"?>
<!DOCTYPE svg PUBLIC "-//W3C//DTD SVG 1.1//EN" "http://www.w3.org/Graphics/SVG/1.1/DTD/svg11.dtd">
<svg xmlns="http://www.w3.org/2000/svg">
<metadata>autoimage</metadata>
<defs>
<font id="fontello" horiz-adv-x="1000" >
<font-face font-family="fontello" font-weight="400" font-stretch="normal" units-per-em="1000" ascent="850" descent="-150" />
<missing-glyph horiz-adv-x="1000" />
<glyph glyph-name="1" unicode="&#xe800;" d="m905 162c49-56 53-146 4-203-40-44-104-68-161-49-20 5-36 20-53 31l-5 4c-24-26-50-48-72-76 27-24 59-13 80 11 59-36 135-32 193 3 95 50 127 178 79 271 25 20 34 55 8 78-26-21-50-45-73-70z m-460 189c68-55 118-127 168-198-23-61-30-132 3-191-25-20-35-53-11-79 26 21 50 46 74 70l-3 6c-15 23-30 47-33 75-13 74 36 152 108 173 49 13 107 1 143-37 23 26 52 47 71 76-26 26-57 12-75-12-59 30-130 32-189 2-45 33-94 62-135 100-24 21-46 45-67 69-18-17-36-35-54-54z m-288 28c56-63 119-118 176-179 12-12 24-29 43-29 25-5 43 15 60 30-20 25-45 45-63 71-9 17 11 30 19 42 47 47 94 93 140 140 13 11 26 29 45 23 26-14 45-40 65-62 35 11 50 61 24 88-64 63-129 126-193 189-107-102-210-208-316-313z m258 73c34 14 50-47 14-51-30-11-44 43-14 51z m22 262c-86-83-169-169-255-252-18-18-36-36-53-55 5-5 15-14 20-19 104 97 201 201 302 301 15 10 3 38-14 25z m-34 21c-92-91-183-182-276-273-8-10-23-19-21-35 25-26 45 19 64 32 86 88 173 174 258 263 11 19-15 31-25 13z m-138 96c-69-71-140-140-210-209-18-19-38-36-51-59-4-41 34-69 61-93l13 15c4-10 10-21 0-31l18-9c106 100 210 203 309 309l-5 13-13 6c-105-92-196-199-301-291l6 12c93 98 194 189 285 289-14 22-30 44-52 58-20 7-45 6-60-10z" horiz-adv-x="1000" />
<glyph glyph-name="logo_avto" unicode="&#xe813;" d="m301 387c0 0 299 105 575 108 121 1 394-20 573-81 192-65 1827-38 2127-65 344-30 709-151 674-281-39-145-119-211-119-211s63 149-9 225c-88 93-314 197-564 226-307 34-1844 25-2109 62-607 86-1148 17-1148 17m-137 16c0 0 252 82 401 112 152 31 355 42 387 37l5 13c0 0-81 10-71 37 9 26 121 82 268 113 130 28 447 86 700 77 328-12 306-4 833-371 0 0-316 283-490 362-221 101-878 54-1155-6-277-61-742-184-833-203-88-19-133 1-173 15 0 0 25-43 103-63 50-13 65-11 72-36 6-25-52-46-55-66-4-26 8-21 8-21m171-506c0 0 148 171 355 184 206 13 348-152 403-184 0 0-142 249-384 249-242 0-358-201-374-249m3573-3c-15 46-127 239-359 239-232 0-368-239-368-239 52 31 188 189 387 177 198-13 340-177 340-177" horiz-adv-x="4286" />
<glyph glyph-name="3" unicode="&#xe802;" d="m249 212c-39 16-75 19-115 6-53-18-95-58-120-107v-9c56 13 113 26 171 29 48-6 58-60 58-101 8-37-21-73-57-79-50-9-100-16-150-23 56-77 172-89 251-39 7 7 15 14 22 21 57 48 67 133 43 201 30 27 59 53 85 82-11 33-9 67 4 98-18 19-37 38-56 56-44-47-91-90-136-135z m381 524c-24-47-28-104-7-153-53-53-107-105-159-158 19-19 38-38 57-57 31 14 65 17 96 1 35 38 73 73 107 112 46-16 95-15 141 1 46 22 82 60 103 107-56-7-109-22-165-26-21-2-38 13-53 25-12 27-19 58-20 88-1 30 23 59 54 64 48 11 97 17 145 26l5 5c-25 22-52 44-85 54-81 26-181-11-219-89z m-384 44c16-20 23-48-5-60l-30 5c-12-12-25-24-37-36-7 3-22 8-29 11-11-7-23-12-33-20-1-16 0-32 3-48-59-51-109-122-100-203 7-68 42-135 98-174-3 45-18 90-7 135 7 33 23 68 52 87 33 15 58-33 90-19 11 5 21 12 30 18 63-60 123-122 185-183-10-24-24-50-14-77 9-22 26-39 41-57 89-89 168-187 256-278 29-29 76-30 113-15 34 32 76 60 93 105 13 38 0 81-31 107-80 72-161 142-239 215-23 19-43 42-68 59-31 17-67 9-97-6-38 38-75 76-113 113-19 19-37 38-56 56-6 6-12 11-17 16 12 14 24 28 36 42 0 14-6 31 5 43 19 9 36-5 52-13 21 20 42 40 61 62-57 61-118 118-177 178-24-18-44-40-62-63z" horiz-adv-x="1000" />
<glyph glyph-name="4" unicode="&#xe803;" d="m329-5c-30 0-61 0-91 0 0-39-1-78 0-117-1-12 5-18 17-21 26 0 52-3 75 10-1 43-1 85-1 128z m361 0c-1-43 0-85-1-128 23-13 49-10 74-10 13 3 18 9 18 21 1 39 0 78 0 117-31 0-61 0-91 0z m-436 469c-6-72-18-143-23-215-19-7-43-14-48-35-2-54 0-112-1-165-1-15 7-31 19-40h607c14 8 24 23 22 39-1 55 1 113-1 167-5 21-26 30-47 33-6 60-11 120-17 181-1 35-7 82-50 91-133 4-267 2-400 2-36 5-61-27-61-58z m25 20c13 11 29 17 47 14 126 1 251-1 377 2 18 2 34-14 36-31 8-74 14-149 22-223-47 0-95-1-142 0-30-1-60 0-90 0-92-1-184 0-276 0l8 23c2 44 4 88 10 131 3 28 3 57 8 84z m119-284c71 2 142 1 212 0 22-3 9-32-9-26-68 2-136-3-203 2l-7 9 7 15z m-150-30c30 16 70-1 80-31 19-40-26-89-70-73-49 10-58 86-10 104z m459-2c37 28 99-5 93-50 1-38-46-65-82-50-44 13-51 78-11 100z m-301-48c-19 2-18 27 0 31 69 1 138 0 208 0 4-10 13-25-3-32-68 0-137 0-205 1z m-8-28c66 8 137 0 205 3 19 6 26-25 8-28-65-1-130 0-195-1-15-5-36 14-18 26z m-228 394c12-27 49-39 66-10 5 24 8 52-3 75-23-20-49-38-63-65z m596 54c0-26-5-70 34-72 18 4 31 22 25 39-11 18-30 30-46 44l-13-11z m-96 34c20-15 55 5 47 30-12 22-35 36-55 52-3-26-12-60 8-82z m-92 74c0-31-27-75 11-93 24-15 52 17 39 38-14 21-27 43-50 55z m-99-54c-12-27 29-55 50-31 27 25-9 59-17 85-22-7-24-36-33-54z m-93-1c3-13 0-28 13-37 15-9 41-4 46 15 7 25-4 52-6 78-20-17-37-36-53-56z m-93 0c-5-22 18-29 33-39 41 16 35 63 25 96-21-18-44-34-58-57z m191 253l-1-56c-52-8-129-8-147-65-22 3-43-2-53-22 3-22 18-41 43-37 113 0 226-2 340 1 20 3 53-2 59 24 6 29-28 38-51 36l-9 27c-38 25-85 32-130 37-1 18-1 36-2 55-16 1-33 1-49 0z" horiz-adv-x="1000" />
<glyph glyph-name="5" unicode="&#xe804;" d="m127 844c-30-1-59-13-80-34-23-21-36-51-38-82v-14c2-28 13-56 33-77 22-22 44-44 65-66-38-67-58-145-57-223 1-75 21-150 58-216-22-21-43-43-65-64-20-21-32-50-34-79v-13c2-32 16-62 39-83 21-20 49-32 78-34h13c21 2 41 8 59 19 14 9 25 22 37 34 16 15 31 31 47 46 71-40 154-60 236-57 71 2 141 23 203 57 21-21 43-43 64-64 21-21 50-33 79-35h13c28 2 56 13 76 33 24 21 38 52 40 84v13c-1 23-8 45-21 63-8 12-18 21-28 31l-49 49c33 60 53 128 57 197 4 84-16 169-57 242 21 22 43 44 65 66 20 21 32 49 33 77v14c-2 32-16 63-41 85-20 19-48 30-77 31h-10c-21-1-42-7-60-19-14-8-25-21-37-32-16-16-31-32-47-47-60 33-127 53-195 56-85 5-170-15-244-56-22 21-44 43-66 65-21 20-50 32-79 33h-10z m-46-59c18 15 42 21 64 17 17-3 33-11 45-23l85-85c12 7 23 14 35 20 93 50 206 62 307 31 39-11 76-29 110-51l82 82c22 24 57 33 87 23 26-8 47-31 54-57 8-30-3-63-26-84l-81-80c24-37 43-78 54-120 25-91 17-189-22-274-9-20-20-39-32-58l85-85c18-18 27-45 24-70-4-25-20-48-42-60-31-18-73-12-98 14l-85 85c-31-20-64-37-99-48-96-32-204-26-296 17-20 8-39 19-57 31l-82-83c-6-6-14-12-22-16-24-14-55-14-79 0-21 12-36 33-40 56-6 26 3 54 21 73l86 86c-20 31-37 65-48 101-27 81-26 169 0 250 11 36 28 69 48 101l-85 85c-16 16-25 39-24 62 1 23 13 46 31 60z m780-762c-16-4-29-18-31-35-3-16 5-32 19-40 11-7 25-8 37-3 13 5 23 18 25 32 2 12-3 26-12 35-9 10-24 14-38 11z m-738 0c-16-4-30-18-32-35-2-17 8-35 23-42 12-6 26-6 37 0 12 6 20 18 22 31 2 14-4 28-15 37-10 8-23 11-35 9z m738 738c-16-4-29-18-31-34-3-17 6-35 21-42 12-7 27-7 39 0 11 6 19 17 21 30 2 13-3 26-12 35-9 10-24 14-38 11z m-738 0c-16-4-30-18-32-34-2-16 6-33 20-41 10-7 25-8 36-3 14 5 25 19 26 34 1 14-5 28-16 36-10 8-22 11-34 8z m365-308c22 3 46-1 65-13 26-15 45-42 49-72 4-23 0-47-12-67-13-23-36-41-62-48-22-6-47-4-68 5-28 12-50 38-58 67-7 27-3 56 12 80 15 26 43 45 74 48z m-322-101c0-185 150-335 335-335 185 0 335 150 335 335s-150 335-335 335c-185 0-335-150-335-335z m328 61c-31-3-56-32-54-63 0-31 27-58 57-60 31-2 61 22 65 52 4 22-5 44-22 58-13 10-30 15-46 13z" horiz-adv-x="1000" />
<glyph glyph-name="6" unicode="&#xe805;" d="m716 144c0-42-1-85 8-127 56-5 113-6 169 2 3 41 4 82 5 123-61 4-121 3-182 2z m-613 0c-1-42-1-85 8-127 56-5 113-6 168 2 4 41 5 82 6 123-61 4-122 3-182 2z m119 516c-30-41-44-90-66-135-50 12-101 20-153 14 3-28 6-57 10-85 33-4 67-5 100-8-22-40-50-78-70-120-8-49 10-97 19-145 291-3 583 0 875-1 12 47 28 95 21 144-20 43-50 81-70 124 32 1 64 2 96 3 8 30 12 61 10 92-51-1-102-7-152-17-28 50-33 128-95 148-146 18-294 15-440 6-29-4-61-1-85-20z m39-32c160 14 320 17 479-2 20-46 40-91 60-137h-599c19 47 39 93 60 139z m-162-282c67 1 181 5 177-88-55-4-112-7-167 3-4 28-7 57-10 85z m236-20c22 14 47 23 74 22 82 4 164 2 245-5 8-39-18-81-59-86-61-6-123-6-185-1-39 2-57 41-75 70z m390-69c-8 93 111 94 177 86-4-29-8-58-14-87-55-2-109-2-163 1z m-335 47h-5c24-8 48-11 73-12-23-2-47-6-69-11 72-6 144-4 216-1-25 8-44 12-71 14 22 0 43 1 64-1v15c-69-2-139 3-208-4z" horiz-adv-x="1000" />
<glyph glyph-name="7" unicode="&#xe806;" d="m753 99c-50-27-54-107-6-138 48-39 129 0 127 63 10 63-69 109-121 75z m21-47c27 24 68-16 44-43-26-34-76 15-44 43z m-684 116c-36-9-66-38-77-73-24-66 27-145 96-149 67-8 129 55 122 122-3 68-75 120-141 100z m21-80c24 9 49-21 35-42-7-22-40-24-51-4-13 15-3 41 16 46z m79 94c50-40 78-103 63-167 141 1 283 0 425 0l8 6c1 58 46 118 108 115 62 2 109-57 109-117l35-7c5 110 1 221 2 332-249-55-499-111-750-162z m78 192c44-29 97-38 145-58 49-15 97-45 149-33-59 43-130 64-198 88-31 11-64 7-96 3z m-57 117c-23-35-45-72-64-110-11-28 25-40 45-43 40-9 53 39 72 65 47-3 95 5 141-4 64-35 130-67 193-104 79 20 162 26 237 58-128 51-256 102-385 152-46 18-96 11-144 13-32-1-74 6-95-27z m659-132c21 2 43 5 65 7 21 126 41 252 58 378-22 3-44 7-65 11-21-132-46-263-58-396z" horiz-adv-x="1000" />
<glyph glyph-name="8" unicode="&#xe807;" d="m500 316c66 0 119 54 119 121 0 66-53 120-119 120-66 0-119-54-119-120 0-67 53-121 119-121z m0 295c95 0 172-78 172-174 0-38-12-73-32-102l111-141-117 16 2-120-136 172-137-172 3 120-118-16 112 141c-21 29-33 64-33 102 0 96 77 174 173 174z" horiz-adv-x="1000" />
<glyph glyph-name="9" unicode="&#xe808;" d="m500 342c57 0 103 47 103 105 0 58-46 105-103 105s-102-47-102-105c0-58 45-105 102-105z m0 270c96 0 174-80 174-178 0-43-51-105-76-136-32-39-98-209-98-209s-66 170-98 209c-26 31-76 92-76 136 0 98 78 178 174 178z m13-110v-42h41v-27h-41v-41h-26v41h-41v27h41v42h26z" horiz-adv-x="1000" />
<glyph glyph-name="11" unicode="&#xe809;" d="m707 245c-1-21-1-42-3-63-29-4-58-3-87-1-5 21-5 43-5 65 32 0 63 0 95-1z m-318 0c0-21-1-42-3-63-29-4-58-4-87-1-5 21-4 43-4 65 31 0 63 1 94-1z m11 273c76 5 153 6 229-3 32-10 34-50 49-75 26 5 52 8 78 9 2-16-1-32-5-47-17-1-33-1-50-2 11-22 27-41 37-63 4-25-5-49-11-73-151 1-302-1-453 0-5 25-14 49-10 74 10 21 25 41 36 61-17 1-34 2-52 4-2 14-3 29-5 43 27 3 54-1 79-7 12 23 19 48 35 68 12 10 29 9 43 11z m-54-97h310c-10 23-21 46-31 70-82 9-165 8-248 0-11-23-22-46-31-70z m-48-116c29-5 58-4 87-1 2 47-58 45-92 44 1-14 3-29 5-43z m156-2c32-3 64-3 96 0 21 3 35 24 30 44-42 3-84 4-127 2-13 1-26-4-38-11 9-15 19-35 39-35z m247 0c3 14 6 29 8 44-34 4-96 3-92-44 28-1 56-1 84 0z m-150 26v-8c-10 1-22 1-33 1 14-1 24-3 37-7-37-2-75-3-112 0 12 3 24 5 36 6-13 0-26 2-38 6h3c35 4 71 1 107 2z" horiz-adv-x="1000" />
<glyph glyph-name="2" unicode="&#xe801;" d="m458 846l-20-22c0-41 1-82-1-123-31-6-61-15-90-27-11 14-21 27-32 41-20 22-30 61-66 60-33-15-76-35-77-77 19-37 48-67 71-102-22-22-41-48-56-75-42 13-82 34-127 38-11-10-20-23-25-38-5-25-25-59 0-79 34-20 74-28 112-40-2-33-1-65 0-98-36-11-72-22-109-32l-12-18c-6-35 5-80 34-103 44-4 84 25 127 33 16-27 34-53 56-76-20-28-41-54-60-83-7-12-12-26-8-40 17-27 46-41 72-57 51 10 66 70 99 104 30-12 60-22 92-28 1-38-1-77 1-115-1-13 11-20 17-30 26 0 51 0 76 1 16-2 29 14 28 30 2 38 0 76 1 114 31 6 62 11 92 23 30-33 46-80 86-102h11c24 9 45 25 66 42 15 14 13 44 0 59-18 29-41 55-60 83 21 22 40 48 56 75 38-12 76-22 114-34l26 11c10 33 45 79 8 107-35 15-72 23-108 37l1 23c0 24 0 49-1 74 28 9 56 19 85 27 21 6 46 21 39 46-10 29-11 72-47 81-40-8-78-23-117-35-14 30-36 53-58 77 22 30 46 59 66 91 16 22-4 45-22 56-21 15-50 43-75 20-25-31-45-64-70-95-29 14-59 24-90 31-6 42 7 86-6 127-23 30-67 14-99 18z m-165-331c57 70 148 107 237 100 79-9 152-57 192-125 74-109 41-271-66-347l0-2c-18-12-37-21-56-29l0-1c-52-22-109-26-164-14-26 8-50 21-76 33-29 19-55 44-76 73-49 65-55 151-36 228l2 0c6 32 26 57 43 84z m167-271c-22-26-14-77 21-87 23 1 51-2 64 21 15 30 4 66-25 83-21-2-45 1-60-17z m-7 306c4-87 9-174 13-261 19 0 38 0 57 0l12 1c1 66 4 133 8 199 1 21 2 42 3 64-31-2-62-2-93-3z" horiz-adv-x="1000" />
<glyph glyph-name="10" unicode="&#xe80b;" d="m491 520c-36-1-71-6-105-16-41-13-79-33-110-62-19-19-36-43-41-69-6-25-1-52 11-75 16-29 41-52 69-69 42-27 92-41 142-46 11-1 22-1 33-2h18c38 1 76 6 112 18 35 11 68 28 95 51 22 19 41 44 49 72 5 20 5 43-2 63-5 15-14 29-24 42-20 24-46 42-73 56-27 13-55 23-83 28-25 6-49 8-74 9h-17l0 0z m-16-21c26 3 52 0 78-4 19-3 38-7 56-13 13-4 25-9 35-18 5-4 10-10 10-17 1-8-3-16-9-22-9-9-22-15-35-19-9-2-19-5-28-8-6-1-11-3-17-3-1 0-4-1-5 1-1 2-1 5-1 7-3 18-8 35-16 52-4 10-10 19-18 27-6 6-13 10-21 10-10 2-19-2-26-8-9-7-15-17-20-27-9-19-16-38-18-59 0-1 0-3-1-3-5-1-9 0-13 1-13 4-25 7-38 11-11 3-21 8-29 15-6 5-10 10-12 17-2 7 0 14 4 20 4 6 10 10 16 13 14 8 30 12 46 16 20 4 41 9 62 11l0 0z m22-43c5 1 10-1 14-4 7-6 11-13 15-20 5-10 9-21 11-33 0-2 0-5 0-7-2-1-4-2-5-2-19-1-39-1-58 0-3 0-7 0-10 1-1 1-1 3-1 4 1 9 3 18 6 26 4 9 8 17 14 24 3 5 8 9 14 11l0 0z m-198-24c1 1 3 0 3-1 2-4 3-9 4-13 2-6 5-10 8-14 11-12 25-20 39-27 25-11 52-18 80-23 1 0 3-1 3-3 0-8 0-15 0-23 0-9 1-18 2-28 3-17 5-34 11-51 6-17 15-32 28-45 2-1 1-4-2-4-19 0-37 4-55 9-27 8-53 18-77 32-19 12-35 28-48 46-14 20-24 44-24 68 0 17 1 34 8 49 4 8 10 14 14 21 2 2 3 5 6 7l0 0z m393-19c4 6 3 13 7 19 2 0 3-1 4-2 5-6 8-12 13-17 9-14 12-31 13-47 1-19-2-39-10-56-13-28-35-51-61-68-17-11-36-19-56-25-22-8-45-15-69-17-4 0-7-1-10 0-2 4 2 6 4 8 15 15 23 35 28 56 5 20 9 41 9 63 0 6 0 13 0 19 0 3-1 7 2 8 20 3 39 8 57 14 18 6 36 13 51 24 7 6 14 13 18 21l0 0z m-231-63c1 1 3 0 4 0 8-1 15-1 23-1 15 0 31-1 46 1 2 0 3 1 5 0 2-1 2-4 2-6-1-20-4-40-11-59-3-9-7-18-14-25-5-5-12-9-19-7-8 1-14 7-18 13-7 12-11 25-14 39-3 13-5 26-6 40 0 1 0 4 2 5l0 0z" horiz-adv-x="1000" />
<glyph glyph-name="13" unicode="&#xe80c;" d="m819 265c0 17-13 30-30 30-16 0-29-13-29-30 0-16 13-29 29-29 17 0 30 13 30 29z m-52 80c44 14 94-20 97-65 5-40-27-79-67-82-40-6-79 26-83 65-5 36 19 72 53 82z m-527-80c0 17-13 30-29 30-17 0-30-13-30-30 0-16 13-29 30-29 16 0 29 13 29 29z m-61 75c41 19 93-7 104-50 12-40-16-86-57-94-38-9-79 15-90 52-12 36 8 78 43 92z m-167 7c1 22 1 44 7 65 36 3 71 1 106 0 13-3 21 9 30 15 28 26 62 46 97 62 19 9 40 14 62 14 63 4 126 4 189 1 20-1 42-1 61-11 50-30 99-60 147-92 49 5 98-4 146-10 35-7 72-12 102-34 11-12 18-27 29-40l-4-26c-5-4-14-4-16-12 1-7 7-14 10-21-33-1-67-2-100-2-2 34-15 73-48 89-32 14-76 13-102-13-21-19-25-49-25-76h-405c-4 35-18 75-54 89-34 12-77 8-101-21-14-16-17-38-18-59-29 1-58 1-86 6-10 15-26 62-27 76z m301 127c-25-17-51-34-69-60l4-6c44-2 87-2 131-3 0 26 0 52 0 79-22-2-47 4-66-10z m81 9c0-26 0-52 0-78 79 0 158 0 238 0-27 22-54 43-82 62-10 6-20 12-31 13-42 2-83 3-125 3z" horiz-adv-x="1000" />
<glyph glyph-name="14" unicode="&#xe80d;" d="m212 331c16-4 31-12 42-23 30-28 36-77 13-110-23-36-73-50-110-31-41 17-62 69-45 110 14 39 59 63 100 54z m-5-49c-22 9-49-7-52-31-3-21 13-42 34-44 19-2 38 11 42 29 5 19-6 40-24 46z m652 49c14-3 27-10 38-19 30-25 40-70 23-104-19-40-70-61-111-44-41 15-66 65-52 107 12 42 59 70 102 60z m-5-49c-22 9-48-8-51-31-4-21 14-44 36-44 20-1 39 15 40 34 3 17-8 35-25 41z m-135 247c13-16 23-35 36-52 10-12 27-19 43-18 27 0 54 0 82 0 16-1 34 2 50-2 16-4 28-18 29-34 3-23 0-46 2-70 2-15 24-18 26-34 2-14 1-28 1-42 0-9-1-19-9-25-10-3-21-2-32 0-2 13-4 27-10 39-16 33-49 56-85 60-28 3-57-6-78-24-23-19-36-45-38-74-14-2-27 0-40-1h-387c-3 0-7 1-11 2 0 4-1 6-2 10-3 31-25 58-51 74-15 11-35 13-53 13-40 1-78-24-95-60-6-12-8-26-10-39-17-2-35-2-52-1-17 0-28 20-21 35 3 6 9 10 13 16 1 4 1 8 1 12 0 34 0 67 0 101-1 9 1 21 11 24 11 3 22 1 33 1h381c11 0 23 1 34 0 8-1 13-9 13-17 2-28-1-56 2-84 1-8 9-9 15-7 3 7 4 14 4 21 0 52 0 104 0 156 0 9 0 19 8 26 6 6 15 7 23 7 44 0 89 0 133 0 13 0 26-3 34-13z m-45-19c-31 1-62 0-93 0-11 1-20-8-22-18-2-12-3-26 5-36 5-6 14-7 22-7 37 0 75 0 112 0 7 0 16 0 19 7 3 8-3 15-6 21-10 13-20 30-37 33z" horiz-adv-x="1000" />
<glyph glyph-name="15" unicode="&#xe80e;" d="m225 328c23-25 24-65 3-92-13-18-35-28-57-29h-2c-17 1-34 6-47 18-18 15-28 39-25 62 2 25 17 48 39 59 29 15 68 8 89-18z m-47-21c-15 6-34-5-36-22-3-14 7-29 22-32 14-3 29 5 33 19 5 14-4 31-19 35z m673 32c17-12 28-31 29-52 3-24-8-52-26-67-13-10-29-16-45-17h-4c-17 2-34 8-47 20-17 15-26 42-24 64 2 23 16 45 35 56 25 16 59 14 82-4z m-35-32c-15 6-34-5-37-21-3-16 9-32 25-33 14-3 29 8 31 23 3 13-6 27-19 31z m-359 190c28-2 57-4 85-10 62-13 124-32 174-73 3-2 6-1 9-1 34 0 67-1 100-4 36-4 73-9 108-21 20-7 40-14 56-28v0c-13-19-27-39-26-63 1-11 12-16 17-25-10-7-23-7-35-9-19-1-38-2-57-1 5 27-3 56-22 76-17 17-42 26-66 24-27-2-53-22-65-46-10-17-12-38-8-57h-475c5 26-1 53-19 73-17 19-43 32-69 30-27-3-52-19-64-43-10-17-13-38-9-57-20 0-39-1-59 0-14 11-19 29-21 46v11c2 23 9 45 19 66 56 29 114 51 173 70 70 24 143 38 217 42h37z m132-50c-45 14-91 25-139 27 0-23 0-45 0-68h232c-29 17-61 30-93 41z m-166 28c-61 0-123-15-177-45-14-7-24-16-37-24h214v69z" horiz-adv-x="1000" />
<glyph glyph-name="16" unicode="&#xe80f;" d="m296 235c15-2 30-8 42-18 20-17 32-44 31-70-1-22-11-44-28-59-16-15-37-23-59-22-26 1-52 15-67 38-10 15-15 33-14 51 1 24 13 48 32 63 18 14 41 20 63 17z m1-47c-13 4-27 2-37-7-9-8-15-20-14-32 1-12 7-24 17-31 12-8 29-9 42-1 12 8 20 23 18 38-1 15-12 29-26 33z m560 47c36-4 66-34 72-69 5-26-4-55-23-74-16-17-39-27-62-26-27 1-53 16-68 39-11 15-15 35-14 54 2 23 15 45 34 60 17 13 40 19 61 16z m2-47c-13 4-27 2-37-7-10-8-16-21-14-34 1-12 7-23 17-29 12-8 29-8 41-1 13 8 21 24 19 39-2 15-13 28-26 32z m-118 446c5-4 9-10 8-17v-89c1-6-2-12-8-14-5-2-16-1-21-1h-132c-6 1-11-3-15-7 8-8 15-20 23-28 4 4 9 8 15 7h132c1 0 2-1 3-2 8 0 17 6 23 0 5-3 4-10 8-14 16-18 33-34 49-52 2-2 5-6 8-5 35-5 71-9 106-14 7 0 13-5 14-13 3-14 5-28 8-43 6-25 2-52 4-79 0-6 6-10 11-13l9-65c2-8-4-17-12-18-8-1-16-2-23-2-3 26-16 50-35 66-26 24-63 33-97 23-9-3-18 0-25-6-27-18-44-48-48-79h-353c-3 27-17 52-38 70-20 17-46 23-72 22-29 0-57-13-77-34-16-16-26-39-30-62-50 0-96 0-147 0-7 0-12 5-15 11v449c2 4 5 7 8 9h719z m3-169c-3 1-7 1-11 1h-87c-6 1-11-1-14-6-5-5-4-15-4-21 0-9 0-14 0-23 1-8 8-15 15-15h127c7 0 14 6 15 13 2 3-1 0-3 2-9 10-19 20-28 31-2 6-4 15-10 18z" horiz-adv-x="1000" />
<glyph glyph-name="17" unicode="&#xe810;" d="m722 152c-4-6-9-9-16-9h-412c-6 0-12 3-16 9-27 42-41 91-41 142 0 145 118 263 263 263 145 0 263-118 263-263 0-51-14-100-41-142z m-410 179c-21 0-38-17-38-37 0-21 17-38 38-38s38 17 38 38c0 20-17 37-38 37z m56 132c-20 0-37-17-37-38 0-21 17-37 37-37 21 0 38 16 38 37 0 21-17 38-38 38z m193-67c3 10-3 20-13 23-10 3-20-3-23-13l-30-113c-23-1-43-18-50-41-8-31 11-62 41-69 30-8 61 10 69 40 6 24-4 48-23 61l29 112z m-61 123c-21 0-38-16-38-37 0-21 17-38 38-38 21 0 38 17 38 38 0 21-17 37-38 37z m132-56c-21 0-38-17-38-38 0-21 17-37 38-37 21 0 37 16 37 37 0 21-16 38-37 38z m56-132c-21 0-37-17-37-37 0-21 16-38 37-38 21 0 38 17 38 38 0 20-17 37-38 37z" horiz-adv-x="1000" />
<glyph glyph-name="18" unicode="&#xe811;" d="m643 339c-17-17-36-34-57-52l-6-112c0-2-2-5-5-7l-113-66c-1-1-2-1-4-1-3 0-5 1-7 2l-19 19c-2 3-3 6-2 10l25 81-83 82-81-25c-1 0-2 0-3 0-2 0-5 1-6 3l-19 19c-3 3-4 8-2 11l66 113c2 3 5 4 8 5l111 5c18 21 35 41 52 58 74 73 130 97 232 97 5 0 10-5 10-10 0-97-27-162-97-232z m3 176c-16 0-28-13-28-29 0-15 12-28 28-28s28 13 28 28c0 16-13 29-28 29z" horiz-adv-x="1000" />
<glyph glyph-name="19" unicode="&#xe812;" d="m532 148v-52c0-5-4-9-10-9h-39c-5 0-10 4-10 9v52c-68 9-106 50-108 52-2 4-3 9 0 12l30 40c2 2 4 3 7 3 3 1 5 0 7-2 1-1 42-40 94-40 29 0 60 15 60 49 0 28-35 42-75 57-53 21-118 48-118 122 0 54 42 98 103 110v53c0 5 5 9 10 9h39c6 0 10-4 10-9v-52c59-6 91-39 92-40 3-3 4-8 2-11l-24-43c-1-3-4-5-7-5-3 0-5 0-8 2 0 1-35 32-80 32-37 0-63-19-63-45 0-31 36-45 78-61 54-21 115-45 115-116 0-60-43-107-105-117z" horiz-adv-x="1000" />
<glyph glyph-name="12" unicode="&#xe80a;" d="m668 606h0c14-39 30-79 44-118-83 16-166 32-249 48-13-25-27-51-40-76-58 8-115 17-173 26-7 21-13 42-21 63-72-9-144-17-216-25 3-3 7-5 10-6 113-59 224-118 337-176-15-26-29-53-43-79-2-5-5-10-8-14-5 28-17 56-38 76-21 23-52 38-83 41-29 3-59-4-83-19-30-18-52-48-60-81-9-31-6-65 8-94 21-46 69-77 118-78h9c40 1 80 23 104 56 10 14 17 30 21 46 98 1 196 0 294 1 0-5 0-10 0-15-12 2-25 4-38 4-8 0-16-3-23-8 3-3 6-6 9-9 3 2 6 3 10 4 19 2 37-3 55-8 0 11 0 21 0 32 28 0 57-1 86 0 19 53 38 107 58 161 5-7 9-15 14-23-21-18-37-43-44-71-10-36-3-76 17-108 24-37 66-61 109-62h8c34 1 62 15 86 39 25 24 39 58 41 93v10c-2 22-7 43-18 62-18 31-43 54-77 64-29 8-62 5-90-7-5 9-11 18-16 27 34 0 69 0 104 0-69 70-138 139-207 209-5 5-10 10-15 15l0 0z m73-110c29-29 59-59 88-88-16-1-33 0-49 0-16 32-33 65-49 98 4-3 7-6 10-10l0 0z m167-198c19-15 31-38 33-61 2-23-7-47-22-64-14-16-34-26-56-28-26-2-54 9-71 30-15 18-23 42-20 66 2 19 12 37 25 50 14-23 29-47 43-71 11 7 22 13 32 20-14 24-29 48-43 71 26 9 57 4 79-13l0 0z m-682 0c16-12 27-29 32-48-36-1-72-1-108-1 0-17 0-35 0-52 34 0 69 0 103 0-9-22-28-40-50-47-18-7-39-7-57 0-24 9-43 28-51 52-8 23-6 51 7 72 13 23 38 39 65 41 21 3 42-4 59-17l0 0z" horiz-adv-x="1000" />
</font>
</defs>
</svg>
